Ver mensagens sem resposta | Ver tópicos ativos | Ver tópicos novos Hoje é 26/05/2017
Novo anúncio global importante!




Responder Tópico  [ 5 Mensagens ] 
PSX no Xbox Classic 
Autor Mensagem
Moderador - Xbox
Moderador - Xbox
Avatar de usuário

Localização: Santo André - SP
Consoles: PS2+PES+TIME DO FORUM
Live ID: TheT1000BR
PSN ID: Firma_Zuera
XLink Kai ID: T1000NI
Karma: Serious Business(?)
Responder com citação
Mensagem PSX no Xbox Classic
Ter aqueles velhos cd de playstation em sua casa para jogar no seu ps acabado é bom. Mas saber como convertê-los para BIN/CUE e poder jogá-los no emulador PCSXBox, é bem melhor. Esta operação não é complicada mas grande parte das pessoas não sabem como faze-la, veremos como acontece.

O q é BIN/CUE:

BIN/CUE são um formato de imagem do cd, que nem as imagens do Nero Burning Rom ou do tão falado ISO. Para criar essas imagens, há varia soluções, mas o uso do CDrwin , em particular porque é um software de trasncodificação bem conhecido. Se você não o tem, pode ser achado em bons sites de download, como:
http://telecharger.01net.com

Ou diretamente no site oficial do programa:
http://www.goldenhawk.com/cdrwin.htm

Vamos lá!

Insira o cd do ps que vc quer converter em BIN/CUE no seu drive de cd, inicie o CDRwin e clique em "Extract Disk/Tracks/Sectors

1. Quando a janela de extração se abrir, selecione o drive de cd com o cd do PS em "CD Reader", "Filename Image", coloque o nome q vc quiser sem as extensões , O CDRwin irá colocá-las sozinho.

2. Em "Reading Options", deixe com o formato RAW. Se isso não funcionar, seu drive não é compativel, será necessário q vc desmarque esta opção.

3. Error Recovery: ABORT

4. Jitter Correction: AUTO

5. Subcode Analysis: FULL(se não der certo, desmarque, seu drive não é compativel)

6. Read Retry Count: 15, para ver se você obtem mais erros na criação do BIN.

Com todas essas opções marcadas, clique em START e pronto!

Após poucos e longos minutos de espera, vc obtem no arquivo onde vc salvou suas duas imagens: nome_do_jogo.BIN e nome_do_jogo.CUE. Nosso exemplo é dinocrisis_tutorial.bin e dinocrisis_tutorial.cue. Abra p arquivo CUE com o bloco de notas(Botão Direito/Abrir Com/Escolher Programa/Bloco de Notas)
vc deverá ver linhas assim:

FILE "H INOCRISIS_TUTORIAL.BIN" BINARY
TRACK 01 MODE2/2352
INDEX 01 00:00:00
TRACK 02 AUDIO
PREGAP 00:02:00
INDEX 01 36:35:54

O problema do CDRwin, é que está marcado nesse CUE o caminho EXATO para o BIN. então transforme este caminho para manter só o nome do BIN, exemplo:

FILE "DINOCRISIS_TUTORIAL.BIN" BINARY
TRACK 01 MODE2/2352
INDEX 01 00:00:00
TRACK 02 AUDIO
PREGAP 00:02:00
INDEX 01 36:35:54
Salve o CUE, e vc está em posse de um completo e funcional par BIN/CUE para o seu XBOX

Há duas opções para jogar com o seu cd:

Pelo HD do XBOX: é só colocar os dois arquivos na pasta psxcds do PCSXBox e rodar o BIN no PCSXBox.

Em CD-RW/DVD-R: crie uma ISO do CUE e BIN com o Craxtion por exemplo, e queime tudo pelo nero. Com o seu CD no xbox, rode o PCSXBox(com o PCSXbox no seu HD), e pressione no direcional analogico direito para ver o conteudo do CD.

Ae! Tá ai, espero que ajude o pessoal! Valeu!

_________________
-Faço serviço de desbloqueio Xbox 360(Ixtreme e Reset Glitch),interessados Clique Aqui ou entrar em contato pelo e-mail satimara12@hotmail.com.


Editado pela última vez por TheOverlord em 31/10/2010, no total de 3 vezes

Alterado o título do tópico.



21/05/2010
Karma desse Post: 0 
Offline Perfil
Usuário
Usuário
Avatar de usuário
OH,REALLY!? KKKKxD

Localização: Olhos puxados
Consoles: TODOS DA SONY
PSN ID: RaioAzul
Karma: Serious Business(?)
Responder com citação
Mensagem Re: PSX no xbox 360
Eu uso o IMGBurn pra fazer backup de jogos de PS1,2 etc!
Tambem é bom....
Não tenho XBOX,apesar de ter PSone,PS1,PS2,PSTwo e PS3 eu jogo no PSP mesmo.

_________________
Imagem-Imagem
Acesse meu CHAT aqui!


29/05/2010
Karma desse Post: 0 
Offline Perfil
Usuário
Usuário

Gears of War 2

Consoles: Xbox 360, Wii e PSP
Karma: Normal(?)
Responder com citação
Mensagem Re: PSX no xbox 360
Só pra Avisar ki esse tutorial eh pra (Xbox) Naun pra Xbox 360 Como ta ai incima Arruma ai antes ki alguem Diga o mesmo !


26/06/2010
Karma desse Post: 0 
Offline Perfil
Moderador - Xbox
Moderador - Xbox
Avatar de usuário

Localização: Santo André - SP
Consoles: PS2+PES+TIME DO FORUM
Live ID: TheT1000BR
PSN ID: Firma_Zuera
XLink Kai ID: T1000NI
Karma: Serious Business(?)
Responder com citação
Mensagem Re: PSX no xbox 360
pweslley escreveu:
Só pra Avisar ki esse tutorial eh pra (Xbox) Naun pra Xbox 360 Como ta ai incima Arruma ai antes ki alguem Diga o mesmo !
realmente eu deveria ter pesquisado mais um pouco... realmente e para XBOX CLASSIC.

maus pelo engano.

_________________
-Faço serviço de desbloqueio Xbox 360(Ixtreme e Reset Glitch),interessados Clique Aqui ou entrar em contato pelo e-mail satimara12@hotmail.com.


26/06/2010
Karma desse Post: 0 
Offline Perfil

Responder com citação
Mensagem Re: PSX no Xbox Classic
eu instalei driver 2 e na primeira vez funcionou mas da segunda em diante ñ pegou mais , trava depois do icone infogrames !!!!!!!!!!!
e o resident 3 trava sempre q eu pego um item(abro o inventario)se ñ pego roda de boa!!!!!!!!!!
o qta acontecendo????????
espero q possa me ajudar !
FLW!!!!!!!!!


06/10/2010
Mostrar mensagens anteriores:  Organizar por  
Responder Tópico   [ 5 Mensagens ] 

Quem está online

Usuários Registrados: Bing [Bot], Yahoo [Bot]


Você não pode criar novos tópicos neste fórum
Você não pode responder tópicos neste fórum
Você não pode editar suas mensagens neste fórum
Você não pode excluir suas mensagens neste fórum

Procurar por:
Ir para:  
Powered by phpBB © 2000, 2002, 2005, 2007 phpBB Group.
Designed by ST Software for PTF.
Traduzido por phpBB Brasil
Extended by Karma MOD © 2007—2010 m157y
phpBB SEO